conanlcg
超級版主

[更 早] [歐美] [喜劇] [BD-1080P] 變男變女變變變 Switch.1991.1080p.BluRay.x264-GUACAMOLE 7.66GB

-->

帖子完整標題:變男變女變變變 Switch.1991.1080p.BluRay.x264-GUACAMOLE 7.66GB




◎譯  名 變男變女變變變
◎片  名 Switch
◎年  代 1991
◎產  地 美國
◎類  別 喜劇 / 犯罪 / 奇幻
◎語  言 英語
◎上映日期 1991-05-10
◎IMDb評分 5.8/10 from 8081 users
◎IMDb鏈接 https://www.imdb.com/title/tt0103016
◎豆瓣評分 6.8/10 from 420 users
◎豆瓣鏈接 https://movie.douban.com/subject/1301801/
◎片  長 103 分鐘
◎導  演 Blake Edwards
◎編  劇 Blake Edwards
◎主  演 Ellen Barkin
      Jimmy Smits
      JoBeth Williams


◎標  簽 喜劇 | 美國 | 奇幻 | 美國電影 | 愛情 | 變男變女變變變 | 1991 | 構思很秒的電影

◎簡  介

  獵艷高手史提夫在一晚的狂歡派對上被三名情婦聯手殺死,但上帝卻因他風流債太多而拒絕他上天堂。經過史提夫的苦苦哀求,上帝給他一次重生的機會,并且許諾只要他找到一個真心愛他的女人之時,他的靈魂便可以上天堂。當史提夫重返人間之后,惡魔為了讓這個游戲更加好玩,讓他變成了一個女人。
  以前的花花公子史提夫要找一個女人上床輕而易舉,但是,變成女人之后的阿曼達(埃倫·巴爾金 Ellen Barkin 飾)要找一個愛自己的女人可真不那么容易,她不但要應付生活中遇到的種種不便,而且還要找到一個愛自己的女人,這無疑讓影片充滿喜劇效果同時又讓人滿懷期待……
Video
ID : 1
Format : AVC
Format/Info : Advanced Video Codec
Format profile : [email protected]
Format settings : CABAC / 4 Ref Frames
Format settings, CABAC : Yes
Format settings, Reference frames : 4 frames
Codec ID : V_MPEG4/ISO/AVC
Duration : 1 h 43 min
Bit rate : 9 654 kb/s
Width : 1 920 pixels
Height : 1 080 pixels
Display aspect ratio : 16:9
Frame rate mode : Constant
Frame rate : 23.976 (24000/1001) FPS
Color space : YUV
Chroma subsampling : 4:2:0
Bit depth : 8 bits
Scan type : Progressive
Bits/(Pixel*Frame) : 0.194
Stream size : 6.96 GiB (91%)
Writing library : x264 core 157 r2969 d4099dd
Encoding settings : cabac=1 / ref=4 / deblock=1:0:0 / analyse=0x3:0x113 / me=umh / subme=8 / psy=1 / psy_rd=1.00:0.00 / mixed_ref=1 / me_range=16 / chroma_me=1 / trellis=2 / 8x8dct=1 / cqm=0 / deadzone=21,11 / fast_pskip=0 / chroma_qp_offset=-2 / threads=24 / lookahead_threads=4 / sliced_threads=0 / nr=0 / decimate=1 / interlaced=0 / bluray_compat=0 / constrained_intra=0 / bframes=3 / b_pyramid=2 / b_adapt=1 / b_bias=0 / direct=1 / weightb=1 / open_gop=0 / weightp=2 / keyint=250 / keyint_min=23 / scenecut=40 / intra_refresh=0 / rc_lookahead=50 / rc=2pass / mbtree=1 / bitrate=9654 / ratetol=1.0 / qcomp=0.60 / qpmin=0 / qpmax=69 / qpstep=4 / cplxblur=20.0 / qblur=0.5 / ip_ratio=1.40 / aq=1:1.00
Default : Yes
Forced : No

Audio
ID : 2
Format : DTS
Format/Info : Digital Theater Systems
Codec ID : A_DTS
Duration : 1 h 43 min
Bit rate mode : Constant
Bit rate : 960 kb/s
Channel(s) : 2 channels
Channel layout : L R
Sampling rate : 48.0 kHz
Frame rate : 93.750 FPS (512 SPF)
Bit depth : 24 bits
Compression mode : Lossy
Stream size : 709 MiB (9%)
Language : English
Default : No
Forced : No

Menu
00:00:00.000 : en:00:00:00.000
00:02:20.140 : en:00:02:20.140
00:08:59.039 : en:00:08:59.039
00:16:41.834 : en:00:16:41.834
00:24:53.075 : en:00:24:53.075
00:33:37.265 : en:00:33:37.265
00:42:19.078 : en:00:42:19.078
00:53:15.275 : en:00:53:15.275
01:08:24.183 : en:01:08:24.183
01:21:13.786 : en:01:21:13.786
01:29:03.839 : en:01:29:03.839





1 個附件 售價 大小 下載 時間

Switch.1991.1080p.BluRay.x264-GUACAMOLE.torrent 0 金幣 39.00K 539 次 1月前

#1樓
發帖時間:2019-10-15 03:52:55   |   回復數:1
911degrees
隱世仙人♂
非常感謝,謝謝分享
1月前 #2樓
游客組