conanlcg
超級版主

[更 早] [歐美] [劇情] [WEB-1080P] 云雨夜未央/鑰匙 The.Key.1958.1080p.WEBRip.x264-RARBG 2.42GB

-->

帖子完整標題:云雨夜未央/鑰匙 The.Key.1958.1080p.WEBRip.x264-RARBG 2.42GB




◎譯  名 云雨夜未央 / 鑰匙
◎片  名 The Key
◎年  代 1958
◎產  地 英國
◎類  別 劇情 / 愛情 / 戰爭
◎語  言 英語
◎上映日期 1958-05-28(英國)
◎IMDb評分 6.6/10 from 1167 users
◎IMDb鏈接 https://www.imdb.com/title/tt0051816
◎豆瓣評分 7.2/10 from 133 users
◎豆瓣鏈接 https://movie.douban.com/subject/1305253/
◎片  長 134分鐘
◎導  演 卡羅爾·里德 Carol Reed
◎編  劇 Carl Foreman
◎主  演 威廉·霍爾登 William Holden
      索菲婭·羅蘭 Sophia Loren
      特瑞沃·霍華德 Trevor Howard
      奧斯卡·霍莫爾卡 Oskar Homolka
      基隆·摩爾 Kieron Moore
      伯納德·李 Bernard Lee
      Beatrix Lehmann
      Noel Purcell
      布萊恩·福布斯 Bryan Forbes
      邁克爾·凱恩 Michael Caine


◎標  簽 英國 | 卡羅爾·里德 | 戰爭 | Sophia_Loren | 1950s | 威廉·霍爾登 | William_Holden | 1958

◎簡  介

  其它主要演員:
  威廉 霍爾登 邁克爾 凱恩 索菲亞 羅蘭
  基爾龍 穆爾 詹姆斯 海特 科林 戈登
  布賴恩 福布斯 奧斯卡 霍莫爾卡 特雷弗 霍華德
  此片為1958年拍攝于英國,全片采用黑白膠片進行拍攝,使影片帶有一份特殊的感傷。
  二戰期間,德國潛艇大規模的對盟軍的運輸車進行攻擊,目的是使美國的資源無法運輸到英國從而使應該陷入內需匱乏。本片的主人公是一位被盟軍征用的而來運輸車船長,他的任務就是將在公海上被德軍潛艇擊毀的船長拖回,并救助當中的船員,雖然簡單但是這卻是十分危險的工作。
  主人公的宿舍便是他的前任同事,宿舍里還住著他的妻子。
  (題外話:在戰爭的時候很多戰士的妻子、女友在失去自己的丈夫、戀人后多會有些墮落的和成為性尤物,這點在二戰的歐洲地區很突出,但是一直沒有被歷史所正是。)
  故事情節雖然老套的讓2人相戀,雖然片尾2人分開了,但是片尾的情結告訴我們他們最終是會在一起的。~
Video
ID : 1
Format : AVC
Format/Info : Advanced Video Codec
Format profile : [email protected]
Format settings : CABAC / 4 Ref Frames
Format settings, CABAC : Yes
Format settings, Reference frames : 4 frames
Codec ID : avc1
Codec ID/Info : Advanced Video Coding
Duration : 2 h 6 min
Bit rate : 2 500 kb/s
Width : 1 920 pixels
Height : 1 080 pixels
Display aspect ratio : 16:9
Frame rate mode : Constant
Frame rate : 23.976 (23976/1000) FPS
Color space : YUV
Chroma subsampling : 4:2:0
Bit depth : 8 bits
Scan type : Progressive
Bits/(Pixel*Frame) : 0.050
Stream size : 2.21 GiB (92%)
Writing library : x264 core 152 r2851M ba24899
Encoding settings : cabac=1 / ref=4 / deblock=1:-1:-1 / analyse=0x3:0x113 / me=umh / subme=9 / psy=1 / psy_rd=1.00:0.15 / mixed_ref=1 / me_range=24 / chroma_me=1 / trellis=2 / 8x8dct=1 / cqm=0 / deadzone=21,11 / fast_pskip=1 / chroma_qp_offset=-3 / threads=16 / lookahead_threads=4 / sliced_threads=0 / nr=0 / decimate=1 / interlaced=0 / bluray_compat=0 / constrained_intra=0 / bframes=3 / b_pyramid=2 / b_adapt=2 / b_bias=0 / direct=3 / weightb=1 / open_gop=0 / weightp=2 / keyint=250 / keyint_min=25 / scenecut=40 / intra_refresh=0 / rc_lookahead=50 / rc=2pass / mbtree=1 / bitrate=2500 / ratetol=1.0 / qcomp=0.60 / qpmin=0 / qpmax=69 / qpstep=4 / cplxblur=20.0 / qblur=0.5 / vbv_maxrate=31250 / vbv_bufsize=31250 / nal_hrd=none / filler=0 / ip_ratio=1.40 / aq=3:1.00
Encoded date : UTC 2019-10-14 15:39:17
Tagged date : UTC 2019-10-14 15:39:17
Codec configuration box : avcC

Audio
ID : 2
Format : AAC LC
Format/Info : Advanced Audio Codec Low Complexity
Codec ID : mp4a-40-2
Duration : 2 h 6 min
Bit rate mode : Constant
Bit rate : 224 kb/s
Channel(s) : 2 channels
Channel layout : L R
Sampling rate : 48.0 kHz
Frame rate : 46.875 FPS (1024 SPF)
Compression mode : Lossy
Stream size : 203 MiB (8%)
Language : English
Default : Yes
Alternate group : 1
Encoded date : UTC 2019-10-14 15:39:17
Tagged date : UTC 2019-10-14 15:39:17





1 個附件 售價 大小 下載 時間

The.Key.1958.1080p.WEBRip.x264-RARBG.torrent 0 金幣 24.80K 273 次 1月前

#1樓
發帖時間:2019-10-15 02:09:42   |   回復數:2
911degrees
隱世仙人♂
非常感謝,謝謝分享
1月前 #2樓
wybt
武林高手
感謝分享。
1月前 #3樓
游客組