conanlcg
超級版主

[更 早] [歐美] [劇情] [WEB-1080P] 錯誤行動 One.False.Move.1992.1080p.WEBRip.x264-RARBG 2.01GB

-->

帖子完整標題:錯誤行動 One.False.Move.1992.1080p.WEBRip.x264-RARBG 2.01GB




◎譯  名 錯誤行動 / ONE FALSE MOVE
◎片  名 One False Move
◎年  代 1992
◎產  地 美國
◎類  別 劇情 / 驚悚 / 犯罪
◎語  言 英語
◎上映日期 1992-05-08
◎IMDb評分 7.1/10 from 9041 users
◎IMDb鏈接 https://www.imdb.com/title/tt0102592
◎豆瓣評分 7.2/10 from 83 users
◎豆瓣鏈接 https://movie.douban.com/subject/1305663/
◎片  長 105 分鐘
◎導  演 卡爾·富蘭克林
◎編  劇 比利·鮑伯·松頓 Billy Bob Thornton / Gary M. Bettman
◎主  演 比爾·帕克斯頓 Bill Paxton
      Cynda Williams
      比利·鮑伯·松頓 Billy Bob Thornton


◎標  簽 犯罪 | 美國電影 | 美國 | 公路電影 | 獨立電影 | 公路 | 1992 | 劇情

◎簡  介

  在洛衫機警察局兩名偵探的幫助下,阿肯色州星城警察局長戴爾從加州經歷了一條充滿犯罪的道路之旅后,準備雇傭一些罪犯前往他的小鎮。阿肯色州斯塔城警察總長,綽號“龍卷風”的戴爾·迪克松在兩名洛山磯警察局的偵探的協助下準備將幾名犯罪頭目運送到他轄區下的一個小鎮。一路上等待他們的犯罪橫行的旅程,而這一切都要從加利福尼亞開始...
Video
ID : 1
Format : AVC
Format/Info : Advanced Video Codec
Format profile : [email protected]
Format settings : CABAC / 4 Ref Frames
Format settings, CABAC : Yes
Format settings, Reference frames : 4 frames
Codec ID : avc1
Codec ID/Info : Advanced Video Coding
Duration : 1 h 45 min
Source duration : 1 h 45 min
Bit rate : 2 500 kb/s
Width : 1 920 pixels
Height : 1 080 pixels
Display aspect ratio : 16:9
Frame rate mode : Constant
Frame rate : 23.976 (23976/1000) FPS
Color space : YUV
Chroma subsampling : 4:2:0
Bit depth : 8 bits
Scan type : Progressive
Bits/(Pixel*Frame) : 0.050
Stream size : 1.84 GiB (92%)
Source stream size : 1.84 GiB (92%)
Writing library : x264 core 152 r2851M ba24899
Encoding settings : cabac=1 / ref=4 / deblock=1:-1:-1 / analyse=0x3:0x113 / me=umh / subme=9 / psy=1 / psy_rd=1.00:0.15 / mixed_ref=1 / me_range=24 / chroma_me=1 / trellis=2 / 8x8dct=1 / cqm=0 / deadzone=21,11 / fast_pskip=1 / chroma_qp_offset=-3 / threads=16 / lookahead_threads=4 / sliced_threads=0 / nr=0 / decimate=1 / interlaced=0 / bluray_compat=0 / constrained_intra=0 / bframes=3 / b_pyramid=2 / b_adapt=2 / b_bias=0 / direct=3 / weightb=1 / open_gop=0 / weightp=2 / keyint=250 / keyint_min=25 / scenecut=40 / intra_refresh=0 / rc_lookahead=50 / rc=2pass / mbtree=1 / bitrate=2500 / ratetol=1.0 / qcomp=0.60 / qpmin=0 / qpmax=69 / qpstep=4 / cplxblur=20.0 / qblur=0.5 / vbv_maxrate=31250 / vbv_bufsize=31250 / nal_hrd=none / filler=0 / ip_ratio=1.40 / aq=3:1.00
Encoded date : UTC 2019-10-14 13:50:07
Tagged date : UTC 2019-10-14 13:50:07
Codec configuration box : avcC

Audio
ID : 2
Format : AAC LC
Format/Info : Advanced Audio Codec Low Complexity
Codec ID : mp4a-40-2
Duration : 1 h 45 min
Bit rate mode : Constant
Bit rate : 224 kb/s
Channel(s) : 2 channels
Channel layout : L R
Sampling rate : 48.0 kHz
Frame rate : 46.875 FPS (1024 SPF)
Compression mode : Lossy
Stream size : 169 MiB (8%)
Language : English
Default : Yes
Alternate group : 1
Encoded date : UTC 2019-10-14 13:50:07
Tagged date : UTC 2019-10-14 13:50:07





1 個附件 售價 大小 下載 時間

One.False.Move.1992.1080p.WEBRip.x264-RARBG.torrent 0 金幣 20.73K 287 次 1月前

#1樓
發帖時間:2019-10-14 23:59:24   |   回復數:1
911degrees
隱世仙人♂
非常感謝,謝謝分享
1月前 #2樓
游客組