conanlcg
超級版主

[2016] [日本] [喜劇] [BD-1080P] 大怪獸 Kaiju.Mono.2016.JAPANESE.1080p.BluRay.x264-HANDJOB 7.79GB

-->

帖子完整標題:大怪獸 Kaiju.Mono.2016.JAPANESE.1080p.BluRay.x264-HANDJOB 7.79GB




◎譯  名 大怪獸 / Kaiju Mono
◎片  名 大怪獣モノ
◎年  代 2016
◎產  地 日本
◎類  別 喜劇 / 動作
◎語  言 日語
◎上映日期 2016-07-16(日本)
◎IMDb評分 5.4/10 from 35 users
◎IMDb鏈接 https://www.imdb.com/title/tt5582306
◎豆瓣評分 0/10 from 0 users
◎豆瓣鏈接 https://movie.douban.com/subject/34856424/
◎片  長 93分鐘
◎導  演 河崎實 Minoru Kawasaki
◎編  劇 河崎實 Minoru Kawasaki / 中野貴雄 Takao Nakano
◎主  演 赤井沙希 Saki Akai
      古谷敏 Bin Furuya
      堀田真三 Shinz? Hotta


◎簡  介

  暫無相關劇情介紹
Video
ID : 1
Format : AVC
Format/Info : Advanced Video Codec
Format profile : [email protected]
Format settings : CABAC / 4 Ref Frames
Format settings, CABAC : Yes
Format settings, Reference frames : 4 frames
Codec ID : V_MPEG4/ISO/AVC
Duration : 1 h 34 min
Bit rate : 11.2 Mb/s
Width : 1 920 pixels
Height : 1 080 pixels
Display aspect ratio : 16:9
Frame rate mode : Constant
Frame rate : 23.976 (24000/1001) FPS
Color space : YUV
Chroma subsampling : 4:2:0
Bit depth : 8 bits
Scan type : Progressive
Bits/(Pixel*Frame) : 0.225
Stream size : 7.38 GiB (95%)
Writing library : x264 core 157 r2935 545de2f
Encoding settings : cabac=1 / ref=4 / deblock=1:-3:-3 / analyse=0x3:0x133 / me=umh / subme=10 / psy=1 / psy_rd=1.00:0.00 / mixed_ref=1 / me_range=32 / chroma_me=1 / trellis=2 / 8x8dct=1 / cqm=0 / deadzone=21,11 / fast_pskip=0 / chroma_qp_offset=-2 / threads=34 / lookahead_threads=8 / sliced_threads=0 / nr=0 / decimate=0 / interlaced=0 / bluray_compat=0 / constrained_intra=0 / bframes=16 / b_pyramid=2 / b_adapt=2 / b_bias=0 / direct=3 / weightb=1 / open_gop=0 / weightp=2 / keyint=240 / keyint_min=24 / scenecut=40 / intra_refresh=0 / rc_lookahead=60 / rc=crf / mbtree=0 / crf=18.0 / qcomp=0.60 / qpmin=0 / qpmax=69 / qpstep=4 / vbv_maxrate=62500 / vbv_bufsize=78125 / crf_max=0.0 / nal_hrd=none / filler=0 / ip_ratio=1.40 / pb_ratio=1.30 / aq=2:1.00
Default : Yes
Forced : No
Color range : Limited
Color primaries : BT.709
Transfer characteristics : BT.709
Matrix coefficients : BT.709

Audio #1
ID : 2
Format : AAC LC
Format/Info : Advanced Audio Codec Low Complexity
Codec ID : A_AAC-2
Duration : 1 h 33 min
Bit rate : 311 kb/s
Channel(s) : 2 channels
Channel layout : L R
Sampling rate : 48.0 kHz
Frame rate : 46.875 FPS (1024 SPF)
Compression mode : Lossy
Delay relative to video : -21 ms
Stream size : 207 MiB (3%)
Language : Japanese
Default : Yes
Forced : No

Audio #2
ID : 3
Format : AAC LC
Format/Info : Advanced Audio Codec Low Complexity
Codec ID : A_AAC-2
Duration : 1 h 33 min
Bit rate : 319 kb/s
Channel(s) : 2 channels
Channel layout : L R
Sampling rate : 48.0 kHz
Frame rate : 46.875 FPS (1024 SPF)
Compression mode : Lossy
Delay relative to video : -21 ms
Stream size : 212 MiB (3%)
Title : English Dub
Language : English
Default : No
Forced : No

Text
ID : 4
Format : UTF-8
Codec ID : S_TEXT/UTF8
Codec ID/Info : UTF-8 Plain Text
Duration : 1 h 31 min
Bit rate : 72 b/s
Count of elements : 1316
Stream size : 48.6 KiB (0%)
Language : English
Default : Yes
Forced : No

Menu
00:00:00.000 : :Chapter 1
00:07:10.513 : :Chapter 2
00:08:33.596 : :Chapter 3
00:14:05.762 : :Chapter 4
00:17:11.405 : :Chapter 5
00:22:21.298 : :Chapter 6
00:26:09.902 : :Chapter 7
00:31:55.497 : :Chapter 8
00:39:33.663 : :Chapter 9
00:44:39.051 : :Chapter 10
00:51:22.955 : :Chapter 11
00:56:42.691 : :Chapter 12
01:03:52.704 : :Chapter 13
01:06:28.151 : :Chapter 14
01:10:28.057 : :Chapter 15
01:17:45.411 : :Chapter 16
01:28:54.496 : :Chapter 17
01:29:47.632 : :Chapter 18
01:33:04.579 : :Chapter 19





1 個附件 售價 大小 下載 時間

Kaiju.Mono.2016.JAPANESE.1080p.BluRay.x264-HANDJOB.torrent 0 金幣 39.50K 434 次 1月前

#1樓
發帖時間:2019-10-14 19:51:20   |   回復數:1
911degrees
隱世仙人♂
非常感謝,謝謝分享
1月前 #2樓
游客組