conanlcg
超級版主

[更 早] [歐美] [喜劇] [WEB-1080P] 沉睡野人 Encino.Man.1992.1080p.AMZN.WEBRip.DDP2.0.x264-NTb 6.85GB

-->

帖子完整標題:沉睡野人 Encino.Man.1992.1080p.AMZN.WEBRip.DDP2.0.x264-NTb 6.85GB




◎譯  名 沉睡野人
◎片  名 Encino Man
◎年  代 1992
◎產  地 美國
◎類  別 喜劇 / 奇幻
◎語  言 英語
◎上映日期 1992-05-22(美國)
◎IMDb評分 5.8/10 from 35263 users
◎IMDb鏈接 https://www.imdb.com/title/tt0104187
◎豆瓣評分 6.5/10 from 167 users
◎豆瓣鏈接 https://movie.douban.com/subject/1422891/
◎片  長 88 分鐘
◎導  演 Les Mayfield
◎編  劇 George Zaloom / Shawn Schepps
◎主  演 布蘭登·費舍 Brendan Fraser
      西恩·奧斯汀 Sean Astin
      保利·肖爾 Pauly Shore


◎標  簽 喜劇 | 美國 | 科幻 | 1992 | 美國電影 | 校園 | 奇幻 | 電影

◎簡  介

  戴夫覺得自己的中學時代快要結束了,可是還什么也沒有做,他決定應該挖一個游泳池,讓大家在畢業典禮之后來他家游泳,并舉辦舞會,這樣或許能夠成為畢業生的傳奇人物。他在挖掘當中遇到地震,過后在他的游泳池里發現了一塊玻璃一樣的冰塊,里面有一個沉睡著的人。冰塊融化后,沉睡者復活了,竟然是...
Video
ID : 1
Format : AVC
Format/Info : Advanced Video Codec
Format profile : [email protected]
Format settings : CABAC / 4 Ref Frames
Format settings, CABAC : Yes
Format settings, Reference frames : 4 frames
Codec ID : V_MPEG4/ISO/AVC
Duration : 1 h 28 min
Bit rate mode : Variable
Bit rate : 10.6 Mb/s
Maximum bit rate : 15.0 Mb/s
Width : 1 920 pixels
Height : 1 040 pixels
Display aspect ratio : 1.85:1
Frame rate mode : Constant
Frame rate : 23.976 (24000/1001) FPS
Color space : YUV
Chroma subsampling : 4:2:0
Bit depth : 8 bits
Scan type : Progressive
Bits/(Pixel*Frame) : 0.222
Stream size : 6.58 GiB (96%)
Writing library : x264 core 148 r2623 d5b2374
Encoding settings : cabac=1 / ref=4 / deblock=1:-1:-1 / analyse=0x3:0x133 / me=umh / subme=9 / psy=1 / psy_rd=1.00:0.15 / mixed_ref=1 / me_range=24 / chroma_me=1 / trellis=2 / 8x8dct=1 / cqm=0 / deadzone=21,11 / fast_pskip=1 / chroma_qp_offset=-3 / threads=32 / lookahead_threads=5 / sliced_threads=0 / nr=150 / decimate=1 / interlaced=0 / bluray_compat=0 / constrained_intra=0 / bframes=8 / b_pyramid=2 / b_adapt=2 / b_bias=0 / direct=3 / weightb=1 / open_gop=0 / weightp=2 / keyint=120 / keyint_min=61 / scenecut=0 / intra_refresh=0 / rc_lookahead=120 / rc=crf / mbtree=1 / crf=18.0 / qcomp=0.60 / qpmin=0 / qpmax=69 / qpstep=4 / vbv_maxrate=15000 / vbv_bufsize=31250 / crf_max=0.0 / nal_hrd=vbr / filler=0 / ip_ratio=1.40 / aq=3:1.00
Default : Yes
Forced : No
Color range : Limited
Color primaries : BT.709
Transfer characteristics : BT.709
Matrix coefficients : BT.709

Audio
ID : 2
Format : E-AC-3
Format/Info : Enhanced AC-3
Commercial name : Dolby Digital Plus
Codec ID : A_EAC3
Duration : 1 h 28 min
Bit rate mode : Constant
Bit rate : 224 kb/s
Channel(s) : 2 channels
Channel layout : L R
Sampling rate : 48.0 kHz
Frame rate : 31.250 FPS (1536 SPF)
Compression mode : Lossy
Stream size : 142 MiB (2%)
Language : English
Service kind : Complete Main
Default : Yes
Forced : No

Text
ID : 3
Format : UTF-8
Codec ID : S_TEXT/UTF8
Codec ID/Info : UTF-8 Plain Text
Language : English
Default : No
Forced : No





1 個附件 售價 大小 下載 時間

Encino.Man.1992.1080p.AMZN.WEBRip.DDP2.0.x264-NTb.torrent 0 金幣 69.12K 1386 次 3天前

#1樓
發帖時間:2019-10-12 03:37:40   |   回復數:1
911degrees
隱世仙人♂
非常感謝,謝謝分享
15小時前 #2樓
游客組