conanlcg
超級版主

[更 早] [歐美] [劇情] [WEB-1080P] 紅塵/莫干布 Mogambo.1953.1080p.AMZN.WEBRip.DDP2.0.x264-SEV 7.09GB

-->

帖子完整標題:紅塵/莫干布 Mogambo.1953.1080p.AMZN.WEBRip.DDP2.0.x264-SEV 7.09GB




◎譯  名 紅塵 / 莫干布
◎片  名 Mogambo
◎年  代 1953
◎產  地 美國
◎類  別 劇情 / 愛情 / 冒險
◎語  言 英語
◎上映日期 1953-10-09(美國)
◎IMDb評分 6.7/10 from 6960 users
◎IMDb鏈接 https://www.imdb.com/title/tt0046085
◎豆瓣評分 7.0/10 from 341 users
◎豆瓣鏈接 https://movie.douban.com/subject/1292620/
◎片  長 116分鐘
◎導  演 約翰·福特 John Ford
◎編  劇 John Lee Mahin / Wilson Collison
◎主  演 克拉克·蓋博 Clark Gable
      艾娃·加德納 Ava Gardner
      格蕾絲·凱利 Grace Kelly


◎標  簽 美國 | ClarkGable | GraceKelly | 愛情 | 美國電影 | 約翰·福特 | AvaGardner | 1950s

◎簡  介

  克拉克蓋博在剛出道時跟性感女星簡哈露合演的《莫街謀殺案》是他的成名作。二十年后由他自己重演同一角色,女主角則換上熱情的艾娃加德納和冷艷的格雷斯.凱利。這個重拍版本將故事背景從東南亞的橡樹林改到非洲大陸,描寫探險隊員維多愛上歌舞女郎艾洛絲,迅速打得火熱。但當人類學家唐納帶著他的妻子琳達出現時,維多卻把愛情目標轉向琳達,造成了無可挽回的三角悲劇。
  本片并不是導演約翰.福特的代表作,但他處理這個充滿原野風味的三角愛情故事仍然虎虎生風,不乏戲劇性,而且安排了大量的獰獵動作和大自然景色來烘托愛情沖突,效果不錯。

◎獲獎情況

  第26屆奧斯卡金像獎(1954)
  最佳女主角(提名) 艾娃·加德納
  最佳女配角(提名) 格蕾絲·凱利

  第11屆金球獎(1954)
  電影類 最佳女配角 格蕾絲·凱利
Video
ID : 1
Format : AVC
Format/Info : Advanced Video Codec
Format profile : [email protected]
Format settings : CABAC / 4 Ref Frames
Format settings, CABAC : Yes
Format settings, Reference frames : 4 frames
Codec ID : V_MPEG4/ISO/AVC
Duration : 1 h 56 min
Bit rate mode : Variable
Bit rate : 8 515 kb/s
Maximum bit rate : 15.0 Mb/s
Width : 1 440 pixels
Height : 1 080 pixels
Display aspect ratio : 4:3
Frame rate mode : Constant
Frame rate : 23.976 (24000/1001) FPS
Color space : YUV
Chroma subsampling : 4:2:0
Bit depth : 8 bits
Scan type : Progressive
Bits/(Pixel*Frame) : 0.228
Stream size : 6.90 GiB (97%)
Title : Mogambo.1953.1080p.AMZN.WEBRip.DD2.0.x264-SEV
Writing library : x264 core 148 r2623 d5b2374
Encoding settings : cabac=1 / ref=4 / deblock=1:-1:-1 / analyse=0x3:0x133 / me=umh / subme=9 / psy=1 / psy_rd=1.00:0.15 / mixed_ref=1 / me_range=24 / chroma_me=1 / trellis=2 / 8x8dct=1 / cqm=0 / deadzone=21,11 / fast_pskip=1 / chroma_qp_offset=-3 / threads=34 / lookahead_threads=5 / sliced_threads=0 / nr=150 / decimate=1 / interlaced=0 / bluray_compat=0 / constrained_intra=0 / bframes=8 / b_pyramid=2 / b_adapt=2 / b_bias=0 / direct=3 / weightb=1 / open_gop=0 / weightp=2 / keyint=120 / keyint_min=61 / scenecut=0 / intra_refresh=0 / rc_lookahead=120 / rc=crf / mbtree=1 / crf=18.0 / qcomp=0.60 / qpmin=0 / qpmax=69 / qpstep=4 / vbv_maxrate=15000 / vbv_bufsize=31250 / crf_max=0.0 / nal_hrd=vbr / filler=0 / ip_ratio=1.40 / aq=3:1.00
Language : English
Default : Yes
Forced : No
Color range : Limited
Color primaries : BT.709
Transfer characteristics : BT.709
Matrix coefficients : BT.709

Audio
ID : 2
Format : E-AC-3
Format/Info : Enhanced AC-3
Commercial name : Dolby Digital Plus
Codec ID : A_EAC3
Duration : 1 h 56 min
Bit rate mode : Constant
Bit rate : 224 kb/s
Channel(s) : 2 channels
Channel layout : L R
Sampling rate : 48.0 kHz
Frame rate : 31.250 FPS (1536 SPF)
Compression mode : Lossy
Stream size : 186 MiB (3%)
Title : English
Language : English
Service kind : Complete Main
Default : Yes
Forced : No

Text #1
ID : 3
Format : UTF-8
Codec ID : S_TEXT/UTF8
Codec ID/Info : UTF-8 Plain Text
Duration : 1 h 53 min
Bit rate : 57 b/s
Count of elements : 1155
Stream size : 47.4 KiB (0%)
Title : English
Language : English
Default : No
Forced : No

Text #2
ID : 4
Format : UTF-8
Codec ID : S_TEXT/UTF8
Codec ID/Info : UTF-8 Plain Text
Duration : 1 h 53 min
Bit rate : 66 b/s
Count of elements : 2100
Stream size : 55.1 KiB (0%)
Title : SDH
Language : English
Default : No
Forced : No

Text #3
ID : 5
Format : UTF-8
Codec ID : S_TEXT/UTF8
Codec ID/Info : UTF-8 Plain Text
Duration : 1 h 54 min
Bit rate : 55 b/s
Count of elements : 1165
Stream size : 46.7 KiB (0%)
Language : Italian
Default : No
Forced : No

Text #4
ID : 6
Format : UTF-8
Codec ID : S_TEXT/UTF8
Codec ID/Info : UTF-8 Plain Text
Duration : 1 h 55 min
Bit rate : 61 b/s
Count of elements : 1306
Stream size : 51.7 KiB (0%)
Title : SDH
Language : Italian
Default : No
Forced : No

Text #5
ID : 7
Format : UTF-8
Codec ID : S_TEXT/UTF8
Codec ID/Info : UTF-8 Plain Text
Duration : 1 h 55 min
Bit rate : 45 b/s
Count of elements : 1141
Stream size : 38.8 KiB (0%)
Language : French
Default : No
Forced : No

Text #6
ID : 8
Format : UTF-8
Codec ID : S_TEXT/UTF8
Codec ID/Info : UTF-8 Plain Text
Duration : 1 h 53 min
Bit rate : 54 b/s
Count of elements : 1155
Stream size : 44.9 KiB (0%)
Language : Spanish
Default : No
Forced : No

Text #7
ID : 9
Format : UTF-8
Codec ID : S_TEXT/UTF8
Codec ID/Info : UTF-8 Plain Text
Duration : 1 h 54 min
Bit rate : 52 b/s
Count of elements : 1161
Stream size : 44.5 KiB (0%)
Language : Portuguese
Default : No
Forced : No

Text #8
ID : 10
Format : UTF-8
Codec ID : S_TEXT/UTF8
Codec ID/Info : UTF-8 Plain Text
Duration : 1 h 54 min
Bit rate : 48 b/s
Count of elements : 890
Stream size : 40.9 KiB (0%)
Language : Dutch
Default : No
Forced : No

Text #9
ID : 11
Format : UTF-8
Codec ID : S_TEXT/UTF8
Codec ID/Info : UTF-8 Plain Text
Duration : 1 h 54 min
Bit rate : 48 b/s
Count of elements : 1104
Stream size : 40.3 KiB (0%)
Language : Swedish
Default : No
Forced : No

Text #10
ID : 12
Format : UTF-8
Codec ID : S_TEXT/UTF8
Codec ID/Info : UTF-8 Plain Text
Duration : 1 h 55 min
Bit rate : 51 b/s
Count of elements : 1146
Stream size : 43.1 KiB (0%)
Language : Polish
Default : No
Forced : No

Text #11
ID : 13
Format : UTF-8
Codec ID : S_TEXT/UTF8
Codec ID/Info : UTF-8 Plain Text
Duration : 1 h 53 min
Bit rate : 56 b/s
Count of elements : 1160
Stream size : 46.8 KiB (0%)
Language : Romanian
Default : No
Forced : No

Text #12
ID : 14
Format : UTF-8
Codec ID : S_TEXT/UTF8
Codec ID/Info : UTF-8 Plain Text
Duration : 1 h 55 min
Bit rate : 81 b/s
Count of elements : 1044
Stream size : 69.0 KiB (0%)
Language : Bulgarian
Default : No
Forced : No

Text #13
ID : 15
Format : UTF-8
Codec ID : S_TEXT/UTF8
Codec ID/Info : UTF-8 Plain Text
Duration : 1 h 53 min
Bit rate : 52 b/s
Count of elements : 1155
Stream size : 43.4 KiB (0%)
Language : Croatian
Default : No
Forced : No

Text #14
ID : 16
Format : UTF-8
Codec ID : S_TEXT/UTF8
Codec ID/Info : UTF-8 Plain Text
Duration : 1 h 54 min
Bit rate : 59 b/s
Count of elements : 1157
Stream size : 49.8 KiB (0%)
Language : Turkish
Default : No
Forced : No

Text #15
ID : 17
Format : UTF-8
Codec ID : S_TEXT/UTF8
Codec ID/Info : UTF-8 Plain Text
Duration : 1 h 55 min
Bit rate : 89 b/s
Count of elements : 1164
Stream size : 75.5 KiB (0%)
Language : Greek
Default : No
Forced : No

Text #16
ID : 18
Format : UTF-8
Codec ID : S_TEXT/UTF8
Codec ID/Info : UTF-8 Plain Text
Duration : 1 h 55 min
Bit rate : 73 b/s
Count of elements : 1165
Stream size : 62.6 KiB (0%)
Language : Arabic
Default : No
Forced : No

Text #17
ID : 19
Format : UTF-8
Codec ID : S_TEXT/UTF8
Codec ID/Info : UTF-8 Plain Text
Duration : 1 h 53 min
Bit rate : 54 b/s
Count of elements : 1161
Stream size : 45.2 KiB (0%)
Title : Brazilian
Language : Portuguese
Default : No
Forced : No





1 個附件 售價 大小 下載 時間

Mogambo.1953.1080p.AMZN.WEBRip.DDP2.0.x264-SEV.torrent 0 金幣 71.47K 483 次 3天前

#1樓
發帖時間:2019-10-12 03:25:44   |   回復數:1
911degrees
隱世仙人♂
非常感謝,謝謝分享
15小時前 #2樓
游客組