conanlcg
超級版主

[更 早] [歐美] [其他] [WEB-1080P] 左手持槍/左手神槍 The.Left.Handed.Gun.1958.1080p.AMZN.WEBRip.DDP2.0.x264-SbR 10.08GB

-->

帖子完整標題:左手持槍/左手神槍 The.Left.Handed.Gun.1958.1080p.AMZN.WEBRip.DDP2.0.x264-SbR 10.08GB




◎譯  名 左手持槍 / 左手神槍
◎片  名 The Left Handed Gun
◎年  代 1958
◎產  地 美國
◎類  別 傳記 / 西部
◎語  言 英語 / 西班牙語
◎上映日期 1958-09-26
◎IMDb評分 6.5/10 from 3558 users
◎IMDb鏈接 https://www.imdb.com/title/tt0051849
◎豆瓣評分 6.7/10 from 131 users
◎豆瓣鏈接 https://movie.douban.com/subject/1449831/
◎片  長 102 分鐘
◎導  演 阿瑟·佩恩 Arthur Penn
◎編  劇 萊斯利·史蒂文斯 Leslie Stevens / 戈爾·維達爾 Gore Vidal
◎主  演 保羅·紐曼 Paul Newman
      Lita Milan
      約翰·德納 John Dehner
      赫德·哈特菲爾德 Hurd Hatfield
      James Congdon
      詹姆斯·貝斯特 James Best
      Colin Keith-Johnston
      John Dierkes
      Robert Anderson
      Wally Brown
      Ainslie Pryor
      Martin Garralaga
      丹佛·派爾 Denver Pyle
      Paul Smith
      Nestor Paiva


◎標  簽 美國 | 西部 | 西部片 | 阿瑟·佩恩 | 保羅·紐曼 | 1950s | 1958 | Paul_Newman

◎簡  介

  本片講述來自紐約下層的少年“惡棍”William Bonney在西部闖蕩的故事。這也是第一次把這個被稱作“Billy the Kid”傳奇的古怪青年暴徒的故事搬上大銀幕。
Video
ID : 1
Format : AVC
Format/Info : Advanced Video Codec
Format profile : [email protected]
Format settings : CABAC / 4 Ref Frames
Format settings, CABAC : Yes
Format settings, Reference frames : 4 frames
Codec ID : V_MPEG4/ISO/AVC
Duration : 1 h 42 min
Bit rate mode : Variable
Bit rate : 13.7 Mb/s
Maximum bit rate : 15.0 Mb/s
Width : 1 920 pixels
Height : 1 080 pixels
Display aspect ratio : 16:9
Frame rate mode : Constant
Frame rate : 23.976 (24000/1001) FPS
Color space : YUV
Chroma subsampling : 4:2:0
Bit depth : 8 bits
Scan type : Progressive
Bits/(Pixel*Frame) : 0.275
Stream size : 9.78 GiB (97%)
Writing library : x264 core 148 r2623 d5b2374
Encoding settings : cabac=1 / ref=4 / deblock=1:-1:-1 / analyse=0x3:0x133 / me=umh / subme=9 / psy=1 / psy_rd=1.00:0.15 / mixed_ref=1 / me_range=24 / chroma_me=1 / trellis=2 / 8x8dct=1 / cqm=0 / deadzone=21,11 / fast_pskip=1 / chroma_qp_offset=-3 / threads=34 / lookahead_threads=5 / sliced_threads=0 / nr=150 / decimate=1 / interlaced=0 / bluray_compat=0 / constrained_intra=0 / bframes=8 / b_pyramid=2 / b_adapt=2 / b_bias=0 / direct=3 / weightb=1 / open_gop=0 / weightp=2 / keyint=120 / keyint_min=61 / scenecut=0 / intra_refresh=0 / rc_lookahead=120 / rc=crf / mbtree=1 / crf=18.0 / qcomp=0.60 / qpmin=0 / qpmax=69 / qpstep=4 / vbv_maxrate=15000 / vbv_bufsize=31250 / crf_max=0.0 / nal_hrd=vbr / filler=0 / ip_ratio=1.40 / aq=3:1.00
Language : English
Default : Yes
Forced : No
Color range : Limited
Color primaries : BT.709
Transfer characteristics : BT.709
Matrix coefficients : BT.709

Audio #1
ID : 2
Format : E-AC-3
Format/Info : Enhanced AC-3
Commercial name : Dolby Digital Plus
Codec ID : A_EAC3
Duration : 1 h 42 min
Bit rate mode : Constant
Bit rate : 224 kb/s
Channel(s) : 2 channels
Channel layout : L R
Sampling rate : 48.0 kHz
Frame rate : 31.250 FPS (1536 SPF)
Compression mode : Lossy
Stream size : 164 MiB (2%)
Language : English
Service kind : Complete Main
Default : Yes
Forced : No

Audio #2
ID : 3
Format : AC-3
Format/Info : Audio Coding 3
Commercial name : Dolby Digital
Codec ID : A_AC3
Duration : 1 h 42 min
Bit rate mode : Constant
Bit rate : 192 kb/s
Channel(s) : 2 channels
Channel layout : L R
Sampling rate : 48.0 kHz
Frame rate : 31.250 FPS (1536 SPF)
Bit depth : 16 bits
Compression mode : Lossy
Stream size : 141 MiB (1%)
Title : Commentary by director Arthur Penn
Language : English
Service kind : Complete Main
Default : No
Forced : No

Text #1
ID : 4
Format : UTF-8
Codec ID : S_TEXT/UTF8
Codec ID/Info : UTF-8 Plain Text
Duration : 1 h 40 min
Bit rate : 45 b/s
Count of elements : 1164
Stream size : 33.3 KiB (0%)
Language : English
Default : No
Forced : No

Text #2
ID : 5
Format : UTF-8
Codec ID : S_TEXT/UTF8
Codec ID/Info : UTF-8 Plain Text
Duration : 1 h 41 min
Bit rate : 47 b/s
Count of elements : 1524
Stream size : 35.8 KiB (0%)
Title : SDH
Language : English
Default : No
Forced : No

Menu
00:00:00.000 : en:01. Credits
00:01:32.962 : en:02. Turnstall Takes Billy On
00:06:09.962 : en:03. Lying In Wait
00:09:17.962 : en:04. Through A Glass Darkly
00:11:42.962 : en:05. Into A Bullet's Path
00:15:04.962 : en:06. Gotta do Something
00:18:34.962 : en:07. Called With Lead
00:24:54.962 : en:08. Inferno
00:28:29.962 : en:09. Sanctuary In Madero
00:32:29.962 : en:10. Garrett's Caution
00:36:32.962 : en:11. Breaking Up The Peace
00:41:37.962 : en:12. Nothing A Young Girl Can't Fix
00:44:48.962 : en:13. See Your Gun, Mister?
00:49:48.962 : en:14. Shooting The Moon
00:54:30.962 : en:15. Shooting Moon
00:58:57.962 : en:16. Hill's Unrest
01:02:21.962 : en:17. Wedding Vows
01:06:16.962 : en:18. Post-Wedding Vow
01:09:40.962 : en:19. Run, Skinny Dog
01:13:18.962 : en:20. Cornered
01:17:10.962 : en:21. They Think They Know Him
01:23:23.962 : en:22. Jailbreak
01:26:19.962 : en:23. On Billy's Trail
01:30:41.962 : en:24. You're Not Him
01:34:13.962 : en:25. Unwanted
01:39:33.962 : en:26. Empty Holster





1 個附件 售價 大小 下載 時間

The.Left.Handed.Gun.1958.1080p.AMZN.WEBRip.DDP2.0.x264-SbR.torrent 0 金幣 51.04K 343 次 3天前

#1樓
發帖時間:2019-10-12 03:18:03   |   回復數:1
911degrees
隱世仙人♂
非常感謝,謝謝分享
15小時前 #2樓
游客組