conanlcg
超級版主

[2019] [歐美] [其他] [BD-4K] 神奇女俠:血脈 Wonder.Woman.Bloodlines.2019.2160p.BluRay.x265.10bit.SDR.DTS-HD.MA.5.1-S

-->

帖子完整標題:神奇女俠:血脈 Wonder.Woman.Bloodlines.2019.2160p.BluRay.x265.10bit.SDR.DTS-HD.MA.5.1-SWTYBLZ 6.61GB




◎譯  名 神奇女俠:血脈
◎片  名 Wonder Woman: Bloodlines
◎年  代 2019
◎產  地 美國
◎類  別 動畫 / 奇幻
◎語  言 英語
◎上映日期 2019-10-05(美國)
◎IMDb評分 4.6/10 from 7 users
◎IMDb鏈接 http://www.imdb.com/title/tt8752498
◎豆瓣評分 0/10 from 0 users
◎豆瓣鏈接 https://movie.douban.com/subject/30286098/
◎片  長 83分鐘
◎導  演 賈斯汀·科普蘭 Justin Copeland / 劉山姆 Sam Liu
◎編  劇 威廉·馬斯頓 William M. Marston / 麥格里德·斯科特 Mairghread Scott
◎主  演 羅莎里奧·道森 Rosario Dawson
      瑪莉·艾格洛蒲露絲 Marie Avgeropoulos
      艾德麗安·C·摩爾 Adrienne C. Moore
      杰弗里·多諾萬 Jeffrey Donovan
      克里·薩莫 Cree Summer
      邁克爾·多恩 Michael Dorn
      康斯坦斯·齊默 Constance Zimmer
      莫贊·瑪諾 Mozhan Marnò
      妮婭·瓦達拉斯 Nia Vardalos
      柯特奈·泰勒 Courtenay Taylor
      雷·蔡斯 Ray Chase
      Kimberly Brooks


◎標  簽 DC | 動畫 | 神奇女俠 | 2019 | 美國 | DC動漫 | 漫改 | DCAMU

◎簡  介

  該部電影是2009年以來的第二部“神奇女俠”動畫電影,電影主要講述神奇女俠神奇女俠要從致命犯罪的組織幫助一名深陷麻煩的女孩,而這個組織的目標是入侵神奇女俠的家鄉天堂島。
  羅莎里奧·道森將繼續為神奇女俠配音,本片將有銀天鵝、豹女、毒藥博士和巨化女等神奇女俠經典反派登場。
Video
ID : 1
Format : HEVC
Format/Info : High Efficiency Video Coding
Format profile : Main [email protected]@High
Codec ID : V_MPEGH/ISO/HEVC
Duration : 1 h 22 min
Bit rate : 8 385 kb/s
Width : 3 840 pixels
Height : 2 160 pixels
Display aspect ratio : 16:9
Frame rate mode : Constant
Frame rate : 23.976 (24000/1001) FPS
Color space : YUV
Chroma subsampling : 4:2:0
Bit depth : 10 bits
Bits/(Pixel*Frame) : 0.042
Stream size : 4.85 GiB (74%)
Title : Wonder.Woman.Bloodlines.2019.2160p.BluRay.x265.10bit.SDR.DTS-HD.MA.5.1-SWTYBLZ
Writing library : x265 3.0ed72af837053:[Windows][GCC 8.2.0][64 bit] 10bit
Encoding settings : cpuid=1111039 / frame-threads=16 / numa-pools=24,24,24,24 / wpp / no-pmode / no-pme / no-psnr / no-ssim / log-level=2 / input-csp=1 / input-res=3840x2160 / interlace=0 / total-frames=119216 / level-idc=51 / high-tier=1 / uhd-bd=0 / ref=3 / no-allow-non-conformance / repeat-headers / annexb / aud / hrd / info / hash=0 / no-temporal-layers / no-open-gop / min-keyint=1 / keyint=24 / gop-lookahead=0 / bframes=6 / b-adapt=2 / b-pyramid / bframe-bias=0 / rc-lookahead=25 / lookahead-slices=4 / scenecut=40 / radl=0 / no-splice / no-intra-refresh / ctu=64 / min-cu-size=8 / no-rect / no-amp / max-tu-size=32 / tu-inter-depth=1 / tu-intra-depth=1 / limit-tu=0 / rdoq-level=0 / dynamic-rd=0.00 / no-ssim-rd / signhide / no-tskip / nr-intra=0 / nr-inter=0 / no-constrained-intra / strong-intra-smoothing / max-merge=2 / limit-refs=3 / no-limit-modes / me=1 / subme=2 / merange=57 / temporal-mvp / weightp / no-weightb / no-analyze-src-pics / deblock=1:1 / no-sao / no-sao-non-deblock / rd=3 / no-early-skip / rskip / no-fast-intra / no-tskip-fast / no-cu-lossless / no-b-intra / no-splitrd-skip / rdpenalty=0 / psy-rd=0.40 / psy-rdoq=0.00 / no-rd-refine / no-lossless / cbqpoffs=0 / crqpoffs=0 / rc=crf / crf=12.0 / qcomp=0.60 / qpstep=4 / stats-write=0 / stats-read=0 / vbv-maxrate=160000 / vbv-bufsize=160000 / vbv-init=0.9 / crf-max=0.0 / crf-min=0.0 / ipratio=1.40 / pbratio=1.30 / aq-mode=1 / aq-strength=0.40 / cutree / zone-count=0 / no-strict-cbr / qg-size=32 / no-rc-grain / qpmax=69 / qpmin=0 / no-const-vbv / sar=1 / overscan=0 / videoformat=5 / range=0 / colorprim=2 / transfer=2 / colormatrix=2 / chromaloc=0 / display-window=0 / max-cll=0,0 / min-luma=0 / max-luma=1023 / log2-max-poc-lsb=8 / vui-timing-info / vui-hrd-info / slices=1 / opt-qp-pps / opt-ref-list-length-pps / no-multi-pass-opt-rps / scenecut-bias=0.05 / no-opt-cu-delta-qp / no-aq-motion / no-hdr / no-hdr-opt / no-dhdr10-opt / no-idr-recovery-sei / analysis-reuse-level=5 / scale-factor=0 / refine-intra=0 / refine-inter=0 / refine-mv=0 / refine-ctu-distortion=0 / no-limit-sao / ctu-info=0 / no-lowpass-dct / refine-analysis-type=0 / copy-pic=1 / max-ausize-factor=1.0 / no-dynamic-refine / no-single-sei / no-hevc-aq / qp-adaptation-range=1.00
Default : Yes
Forced : No

Audio #1
ID : 2
Format : DTS XLL
Format/Info : Digital Theater Systems
Commercial name : DTS-HD Master Audio
Codec ID : A_DTS
Duration : 1 h 22 min
Bit rate mode : Variable
Bit rate : 2 329 kb/s
Channel(s) : 6 channels
Channel layout : C L R Ls Rs LFE
Sampling rate : 48.0 kHz
Frame rate : 93.750 FPS (512 SPF)
Bit depth : 24 bits
Compression mode : Lossless
Stream size : 1.35 GiB (20%)
Title : Wonder.Woman.Bloodlines.2019.2160p.BluRay.x265.10bit.SDR.DTS-HD.MA.5.1-SWTYBLZ
Language : English
Default : Yes
Forced : No

Audio #2
ID : 3
Format : AC-3
Format/Info : Audio Coding 3
Commercial name : Dolby Digital
Codec ID : A_AC3
Duration : 1 h 22 min
Bit rate mode : Constant
Bit rate : 640 kb/s
Channel(s) : 6 channels
Channel layout : L R C LFE Ls Rs
Sampling rate : 48.0 kHz
Frame rate : 31.250 FPS (1536 SPF)
Bit depth : 16 bits
Compression mode : Lossy
Stream size : 379 MiB (6%)
Title : Wonder.Woman.Bloodlines.2019.2160p.BluRay.x265.10bit.SDR.DTS-HD.MA.5.1-SWTYBLZ
Language : English
Service kind : Complete Main
Default : No
Forced : No

Text #1
ID : 4
Format : UTF-8
Codec ID : S_TEXT/UTF8
Codec ID/Info : UTF-8 Plain Text
Duration : 1 h 19 min
Bit rate : 46 b/s
Count of elements : 958
Stream size : 27.2 KiB (0%)
Title : English-SRT
Language : English
Default : Yes
Forced : No

Text #2
ID : 5
Format : PGS
Muxing mode : zlib
Codec ID : S_HDMV/PGS
Codec ID/Info : Picture based subtitle format used on BDs/HD-DVDs
Duration : 1 h 19 min
Bit rate : 31.1 kb/s
Count of elements : 2326
Stream size : 17.8 MiB (0%)
Title : English-PGS
Language : English
Default : No
Forced : No

Text #3
ID : 6
Format : PGS
Muxing mode : zlib
Codec ID : S_HDMV/PGS
Codec ID/Info : Picture based subtitle format used on BDs/HD-DVDs
Duration : 1 h 21 min
Bit rate : 26.5 kb/s
Count of elements : 1944
Stream size : 15.5 MiB (0%)
Title : French-PGS
Language : French
Default : No
Forced : No

Text #4
ID : 7
Format : PGS
Muxing mode : zlib
Codec ID : S_HDMV/PGS
Codec ID/Info : Picture based subtitle format used on BDs/HD-DVDs
Duration : 1 h 21 min
Bit rate : 26.7 kb/s
Count of elements : 1948
Stream size : 15.6 MiB (0%)
Title : Spanish-PGS
Language : Spanish
Default : No
Forced : No

Menu
00:00:00.000 : en:Chapter 01
00:10:04.395 : en:Chapter 02
00:19:53.484 : en:Chapter 03
00:28:26.538 : en:Chapter 04
00:38:44.030 : en:Chapter 05
00:47:37.229 : en:Chapter 06
00:54:35.314 : en:Chapter 07
01:03:48.158 : en:Chapter 08
01:12:13.287 : en:Chapter 09
01:17:54.837 : en:Chapter 10





1 個附件 售價 大小 下載 時間

Wonder.Woman.Bloodlines.2019.2160p.BluRay.x265.10bit.SDR.DTS-HD.MA.5.1-SWTYBLZ.torrent 0 金幣 33.72K 350 次 3天前

#1樓
發帖時間:2019-10-12 02:49:49   |   回復數:2
kola13
一派掌門
感謝分享
1天前 #2樓
911degrees
隱世仙人♂
非常感謝,謝謝分享
15小時前 #3樓
游客組