conanlcg
超級版主

[2019] [歐美] [劇情] [BD-Remux] 巨鱷風暴/噬逃險鱷 Crawl.2019.1080p.BluRay.REMUX.AVC.DTS-HD.MA.7.1-FGT 23.10GB

-->

帖子完整標題:巨鱷風暴/噬逃險鱷 Crawl.2019.1080p.BluRay.REMUX.AVC.DTS-HD.MA.7.1-FGT 23.10GB




◎譯  名 巨鱷風暴 / 噬逃險鱷(港) / 爬行 / 鱷魔(臺)
◎片  名 Crawl
◎年  代 2019
◎產  地 美國
◎類  別 劇情 / 驚悚 / 災難
◎語  言 英語
◎上映日期 2019-07-12(美國) / 2019-09-12(中國大陸)
◎IMDb評分 6.5/10 from 15557 users
◎IMDb鏈接 http://www.imdb.com/title/tt8364368
◎豆瓣評分 5.9/10 from 19319 users
◎豆瓣鏈接 https://movie.douban.com/subject/30210700/
◎片  長 87分鐘
◎導  演 亞歷山大·阿嘉 Alexandre Aja
◎編  劇 邁克爾·拉斯姆森 Michael Rasmussen / 肖恩·拉斯姆森 Shawn Rasmussen
◎主  演 卡雅·斯考達里奧 Kaya Scodelario
      巴里·佩珀 Barry Pepper
      羅斯·安德森 Ross Anderson
      安森·布恩 Anson Boon
      喬治·索納 George Somner
      阿米?梅特卡夫 Ami Metcalf
      何塞?帕爾馬 Jose Palma
      莫菲德·克拉克 Morfydd Clark
      安娜瑪麗亞·塞爾達 Annamaria Serda
      薩凡納·斯泰恩 Savannah Steyn
      喬瓦娜·德拉加 Jovana Dragas
      柯林·麥克法蘭 Colin McFarlane
      蒂娜?普里比切維奇 Tina Pribicevic


◎標  簽 驚悚 | 災難 | 鱷魚 | 美國 | 恐怖 | 血腥 | 2019 | 怪獸

◎簡  介

  一場猛烈的颶風正在逼近美國佛羅里達州的一座小鎮。女主角海莉(卡雅·斯考達里奧飾)在游泳訓練中接到了姐姐的電話,他們的父親(巴里·佩珀飾)已經失聯多時,她非常擔心父親的安危。海莉不顧撤離命令獨自前往父親家中,并最終在地下室里找到了身受重傷的父親。洪水暴漲眼看就要將地下室淹沒,海莉很快就意識到最可怕的并不是洪水,而是隱藏在水中的致命猛獸--鱷魚。
Video
ID : 1
Format : AVC
Format/Info : Advanced Video Codec
Format profile : [email protected]
Format settings : CABAC / 4 Ref Frames
Format settings, CABAC : Yes
Format settings, Reference frames : 4 frames
Codec ID : V_MPEG4/ISO/AVC
Duration : 1 h 27 min
Bit rate mode : Variable
Bit rate : 29.0 Mb/s
Maximum bit rate : 32.3 Mb/s
Width : 1 920 pixels
Height : 1 080 pixels
Display aspect ratio : 16:9
Frame rate mode : Constant
Frame rate : 23.976 (24000/1001) FPS
Color space : YUV
Chroma subsampling : 4:2:0
Bit depth : 8 bits
Scan type : Progressive
Bits/(Pixel*Frame) : 0.583
Stream size : 17.7 GiB (77%)
Title : Crawl.2019.1080p.BluRay.REMUX.AVC.DTS-HD.MA.7.1-FGT
Language : English
Default : No
Forced : No

Audio #1
ID : 2
Format : DTS XLL
Format/Info : Digital Theater Systems
Commercial name : DTS-HD Master Audio
Codec ID : A_DTS
Duration : 1 h 27 min
Bit rate mode : Variable
Bit rate : 4 860 kb/s
Channel(s) : 8 channels
Channel layout : C L R LFE Lb Rb Lss Rss
Sampling rate : 48.0 kHz
Frame rate : 93.750 FPS (512 SPF)
Bit depth : 24 bits
Compression mode : Lossless
Stream size : 2.97 GiB (13%)
Title : Crawl.2019.1080p.BluRay.REMUX.AVC.DTS-HD.MA.7.1-FGT
Language : English
Default : Yes
Forced : No

Audio #2
ID : 3
Format : AC-3
Format/Info : Audio Coding 3
Commercial name : Dolby Digital
Codec ID : A_AC3
Duration : 1 h 27 min
Bit rate mode : Constant
Bit rate : 640 kb/s
Channel(s) : 6 channels
Channel layout : L R C LFE Ls Rs
Sampling rate : 48.0 kHz
Frame rate : 31.250 FPS (1536 SPF)
Bit depth : 16 bits
Compression mode : Lossy
Stream size : 401 MiB (2%)
Title : Crawl.2019.1080p.BluRay.REMUX.AVC.DTS-HD.MA.7.1-FGT
Language : English
Service kind : Complete Main
Default : No
Forced : No

Audio #3
ID : 4
Format : AC-3
Format/Info : Audio Coding 3
Commercial name : Dolby Digital
Codec ID : A_AC3
Duration : 1 h 27 min
Bit rate mode : Constant
Bit rate : 640 kb/s
Channel(s) : 6 channels
Channel layout : L R C LFE Ls Rs
Sampling rate : 48.0 kHz
Frame rate : 31.250 FPS (1536 SPF)
Bit depth : 16 bits
Compression mode : Lossy
Stream size : 401 MiB (2%)
Title : Crawl.2019.1080p.BluRay.REMUX.AVC.DTS-HD.MA.7.1-FGT
Language : Spanish
Service kind : Complete Main
Default : No
Forced : No

Audio #4
ID : 5
Format : AC-3
Format/Info : Audio Coding 3
Commercial name : Dolby Digital
Codec ID : A_AC3
Duration : 1 h 27 min
Bit rate mode : Constant
Bit rate : 640 kb/s
Channel(s) : 6 channels
Channel layout : L R C LFE Ls Rs
Sampling rate : 48.0 kHz
Frame rate : 31.250 FPS (1536 SPF)
Bit depth : 16 bits
Compression mode : Lossy
Stream size : 401 MiB (2%)
Title : Crawl.2019.1080p.BluRay.REMUX.AVC.DTS-HD.MA.7.1-FGT
Language : French
Service kind : Complete Main
Default : No
Forced : No

Audio #5
ID : 6
Format : AC-3
Format/Info : Audio Coding 3
Commercial name : Dolby Digital
Codec ID : A_AC3
Duration : 1 h 27 min
Bit rate mode : Constant
Bit rate : 640 kb/s
Channel(s) : 6 channels
Channel layout : L R C LFE Ls Rs
Sampling rate : 48.0 kHz
Frame rate : 31.250 FPS (1536 SPF)
Bit depth : 16 bits
Compression mode : Lossy
Stream size : 401 MiB (2%)
Title : Crawl.2019.1080p.BluRay.REMUX.AVC.DTS-HD.MA.7.1-FGT
Language : Japanese
Service kind : Complete Main
Default : No
Forced : No

Audio #6
ID : 7
Format : AC-3
Format/Info : Audio Coding 3
Commercial name : Dolby Digital
Codec ID : A_AC3
Duration : 1 h 27 min
Bit rate mode : Constant
Bit rate : 640 kb/s
Channel(s) : 6 channels
Channel layout : L R C LFE Ls Rs
Sampling rate : 48.0 kHz
Frame rate : 31.250 FPS (1536 SPF)
Bit depth : 16 bits
Compression mode : Lossy
Stream size : 401 MiB (2%)
Title : Crawl.2019.1080p.BluRay.REMUX.AVC.DTS-HD.MA.7.1-FGT
Language : Portuguese
Service kind : Complete Main
Default : No
Forced : No

Audio #7
ID : 8
Format : AC-3
Format/Info : Audio Coding 3
Commercial name : Dolby Digital
Codec ID : A_AC3
Duration : 1 h 27 min
Bit rate mode : Constant
Bit rate : 640 kb/s
Channel(s) : 6 channels
Channel layout : L R C LFE Ls Rs
Sampling rate : 48.0 kHz
Frame rate : 31.250 FPS (1536 SPF)
Bit depth : 16 bits
Compression mode : Lossy
Stream size : 401 MiB (2%)
Title : Crawl.2019.1080p.BluRay.REMUX.AVC.DTS-HD.MA.7.1-FGT
Language : Thai
Service kind : Complete Main
Default : No
Forced : No

Text #1
ID : 9
Format : UTF-8
Codec ID : S_TEXT/UTF8
Codec ID/Info : UTF-8 Plain Text
Duration : 1 h 19 min
Bit rate : 25 b/s
Count of elements : 604
Stream size : 14.9 KiB (0%)
Title : English-SRT
Language : English
Default : Yes
Forced : No

Text #2
ID : 10
Format : PGS
Muxing mode : zlib
Codec ID : S_HDMV/PGS
Codec ID/Info : Picture based subtitle format used on BDs/HD-DVDs
Duration : 1 h 16 min
Bit rate : 18.9 kb/s
Count of elements : 1134
Stream size : 10.4 MiB (0%)
Title : English-PGS
Language : English
Default : No
Forced : No

Text #3
ID : 11
Format : PGS
Muxing mode : zlib
Codec ID : S_HDMV/PGS
Codec ID/Info : Picture based subtitle format used on BDs/HD-DVDs
Duration : 1 h 24 min
Bit rate : 19.7 kb/s
Count of elements : 1156
Stream size : 12.0 MiB (0%)
Title : Malay-PGS
Language : Malay
Default : No
Forced : No

Text #4
ID : 12
Format : PGS
Muxing mode : zlib
Codec ID : S_HDMV/PGS
Codec ID/Info : Picture based subtitle format used on BDs/HD-DVDs
Duration : 1 h 26 min
Bit rate : 13.6 kb/s
Count of elements : 1162
Stream size : 8.44 MiB (0%)
Title : Chinese-PGS
Language : Chinese
Default : No
Forced : No

Text #5
ID : 13
Format : PGS
Muxing mode : zlib
Codec ID : S_HDMV/PGS
Codec ID/Info : Picture based subtitle format used on BDs/HD-DVDs
Duration : 1 h 26 min
Bit rate : 16.2 kb/s
Count of elements : 1162
Stream size : 10.1 MiB (0%)
Title : Spanish-PGS
Language : Spanish
Default : No
Forced : No

Text #6
ID : 14
Format : PGS
Muxing mode : zlib
Codec ID : S_HDMV/PGS
Codec ID/Info : Picture based subtitle format used on BDs/HD-DVDs
Duration : 1 h 26 min
Bit rate : 373 b/s
Count of elements : 20
Stream size : 237 KiB (0%)
Title : Spanish-FORCED-PGS
Language : Spanish
Default : No
Forced : No

Text #7
ID : 15
Format : PGS
Muxing mode : zlib
Codec ID : S_HDMV/PGS
Codec ID/Info : Picture based subtitle format used on BDs/HD-DVDs
Duration : 1 h 26 min
Bit rate : 18.5 kb/s
Count of elements : 1158
Stream size : 11.4 MiB (0%)
Title : French-PGS
Language : French
Default : No
Forced : No

Text #8
ID : 16
Format : PGS
Muxing mode : zlib
Codec ID : S_HDMV/PGS
Codec ID/Info : Picture based subtitle format used on BDs/HD-DVDs
Duration : 1 h 26 min
Bit rate : 362 b/s
Count of elements : 20
Stream size : 230 KiB (0%)
Title : French-FORCED-PGS
Language : French
Default : No
Forced : No

Text #9
ID : 17
Format : PGS
Muxing mode : zlib
Codec ID : S_HDMV/PGS
Codec ID/Info : Picture based subtitle format used on BDs/HD-DVDs
Duration : 1 h 26 min
Bit rate : 14.5 kb/s
Count of elements : 1160
Stream size : 8.98 MiB (0%)
Title : HIndi-PGS
Language : Hindi
Default : No
Forced : No

Text #10
ID : 18
Format : PGS
Muxing mode : zlib
Codec ID : S_HDMV/PGS
Codec ID/Info : Picture based subtitle format used on BDs/HD-DVDs
Duration : 1 h 18 min
Bit rate : 11.7 kb/s
Count of elements : 1104
Stream size : 6.57 MiB (0%)
Title : Japanese-PGS
Language : Japanese
Default : No
Forced : No

Text #11
ID : 19
Format : PGS
Muxing mode : zlib
Codec ID : S_HDMV/PGS
Codec ID/Info : Picture based subtitle format used on BDs/HD-DVDs
Duration : 1 h 26 min
Bit rate : 13.3 kb/s
Count of elements : 1162
Stream size : 8.27 MiB (0%)
Title : Korean-PGS
Language : Korean
Default : No
Forced : No

Text #12
ID : 20
Format : PGS
Muxing mode : zlib
Codec ID : S_HDMV/PGS
Codec ID/Info : Picture based subtitle format used on BDs/HD-DVDs
Duration : 1 h 26 min
Bit rate : 13.3 kb/s
Count of elements : 1162
Stream size : 8.26 MiB (0%)
Title : Chinese-PGS
Language : Chinese
Default : No
Forced : No

Text #13
ID : 21
Format : PGS
Muxing mode : zlib
Codec ID : S_HDMV/PGS
Codec ID/Info : Picture based subtitle format used on BDs/HD-DVDs
Duration : 1 h 26 min
Bit rate : 15.3 kb/s
Count of elements : 1156
Stream size : 9.49 MiB (0%)
Title : Portuguese-PGS
Language : Portuguese
Default : No
Forced : No

Text #14
ID : 22
Format : PGS
Muxing mode : zlib
Codec ID : S_HDMV/PGS
Codec ID/Info : Picture based subtitle format used on BDs/HD-DVDs
Duration : 1 h 26 min
Bit rate : 388 b/s
Count of elements : 22
Stream size : 246 KiB (0%)
Title : Portuguese-FORCED-PGS
Language : Portuguese
Default : No
Forced : No

Text #15
ID : 23
Format : PGS
Muxing mode : zlib
Codec ID : S_HDMV/PGS
Codec ID/Info : Picture based subtitle format used on BDs/HD-DVDs
Duration : 1 h 26 min
Bit rate : 12.2 kb/s
Count of elements : 1162
Stream size : 7.59 MiB (0%)
Title : Thai-PGS
Language : Thai
Default : No
Forced : No

Text #16
ID : 24
Format : PGS
Muxing mode : zlib
Codec ID : S_HDMV/PGS
Codec ID/Info : Picture based subtitle format used on BDs/HD-DVDs
Duration : 1 h 21 min
Bit rate : 206 b/s
Count of elements : 18
Stream size : 124 KiB (0%)
Title : Thai-FORCED-PGS
Language : Thai
Default : No
Forced : No

Text #17
ID : 25
Format : PGS
Muxing mode : zlib
Codec ID : S_HDMV/PGS
Codec ID/Info : Picture based subtitle format used on BDs/HD-DVDs
Duration : 1 h 24 min
Bit rate : 23.3 kb/s
Count of elements : 1670
Stream size : 14.1 MiB (0%)
Title : English-FORCED-PGS
Language : English
Default : No
Forced : No

Text #18
ID : 26
Format : PGS
Muxing mode : zlib
Codec ID : S_HDMV/PGS
Codec ID/Info : Picture based subtitle format used on BDs/HD-DVDs
Duration : 1 h 2 min
Bit rate : 388 b/s
Count of elements : 26
Stream size : 177 KiB (0%)
Title : Japanese-FORCED-PGS
Language : Japanese
Default : No
Forced : No

Menu
00:00:00.000 : en:Chapter 01
00:07:51.804 : en:Chapter 02
00:15:16.290 : en:Chapter 03
00:22:15.459 : en:Chapter 04
00:34:42.997 : en:Chapter 05
00:42:15.282 : en:Chapter 06
00:50:13.218 : en:Chapter 07
00:57:13.221 : en:Chapter 08
01:03:51.619 : en:Chapter 09
01:08:56.298 : en:Chapter 10
01:16:36.425 : en:Chapter 11
01:23:10.610 : en:Chapter 12





1 個附件 售價 大小 下載 時間

Crawl.2019.1080p.BluRay.REMUX.AVC.DTS-HD.MA.7.1-FGT.torrent 0 金幣 58.30K 2086 次 3天前

#1樓
發帖時間:2019-10-12 02:35:08   |   回復數:1
911degrees
隱世仙人♂
非常感謝,謝謝分享
15小時前 #2樓
游客組