conanlcg
超級版主

[2019] [歐美] [恐怖] [BD-Remux] 千尸屋3 3.from.Hell.2019.UNRATED.1080p.BluRay.REMUX.AVC.DTS-HD.MA.TrueHD.7.1-FGT 32

-->

帖子完整標題:千尸屋3 3.from.Hell.2019.UNRATED.1080p.BluRay.REMUX.AVC.DTS-HD.MA.TrueHD.7.1-FGT 32.75GB




◎譯  名 千尸屋3 / Three From Hell / 恐怖三人組
◎片  名 3 from Hell
◎年  代 2019
◎產  地 美國
◎類  別 恐怖
◎語  言 英語
◎上映日期 2019-09-18(美國)
◎IMDb評分 6.6/10 from 1120 users
◎IMDb鏈接 http://www.imdb.com/title/tt8134742
◎豆瓣評分 0/10 from 0 users
◎豆瓣鏈接 https://movie.douban.com/subject/30254678/
◎片  長 111分鐘
◎導  演 羅布·贊比 Rob Zombie
◎編  劇 羅布·贊比 Rob Zombie
◎主  演 雪莉·穆恩·贊比 Sheri Moon Zombie
      希德·黑格 Sid Haig
      比爾·莫斯利 Bill Moseley
      埃米里奧·瑞弗拉 Emilio Rivera
      丹尼·特雷霍 Danny Trejo
      克林特·霍華德 Clint Howard
      理查德·布雷克 Richard Brake
      丹尼爾·洛巴克 Daniel Roebuck
      杰弗里·丹尼爾·菲利普斯 Jeffrey Daniel Phillips
      戴維·尤里 David Ury
      迪·沃倫斯 Dee Wallace
      多特-瑪麗·瓊斯 Dot-Marie Jones
      西恩·瓦蘭 Sean Whalen
      理查德·里爾 Richard Riehle
      馬修·維利希 Matthew Willig
      西爾維婭·杰弗里斯 Sylvia Jefferies
      理查德·埃德森 Richard Edson
      盧辛達·珍妮 Lucinda Jenney
      史蒂芬·邁克爾·克扎達 Steven Michael Quezada
      克里斯托弗·B·鄧肯 Christopher B. Duncan
      小比爾·奧伯斯特 Bill Oberst Jr.
      比利·布萊爾 Billy Blair
      杜恩·惠特克 Duane Whitaker
      馬里亞諾·門多薩 Mariano Mendoza
      簡·霍格 Jan Hoag
      尼克·科尼特 Nic Cornett
      Tom Papa
      Pancho Moler
      Austin Stoker
      Chastity Bono
      Stacie Greenwell
      Rian Bishop


◎標  簽 恐怖 | 美國 | 羅布·贊比 | RobZombie | 美國電影 | 電影 | 犯罪 | 美國

◎簡  介

  Sequel to The Devil's Rejects.
Video
ID : 1
Format : AVC
Format/Info : Advanced Video Codec
Format profile : [email protected]
Format settings : CABAC / 4 Ref Frames
Format settings, CABAC : Yes
Format settings, Reference frames : 4 frames
Codec ID : V_MPEG4/ISO/AVC
Duration : 1 h 55 min
Bit rate mode : Variable
Bit rate : 33.0 Mb/s
Maximum bit rate : 37.0 Mb/s
Width : 1 920 pixels
Height : 1 080 pixels
Display aspect ratio : 16:9
Frame rate mode : Constant
Frame rate : 23.976 (24000/1001) FPS
Color space : YUV
Chroma subsampling : 4:2:0
Bit depth : 8 bits
Scan type : Progressive
Bits/(Pixel*Frame) : 0.665
Stream size : 26.7 GiB (82%)
Title : 3.from.Hell.2019.UNRATED.1080p.BluRay.REMUX.AVC.DTS-HD.MA.TrueHD.7.1-FGT
Language : English
Default : No
Forced : No

Audio #1
ID : 2
Format : MLP FBA
Format/Info : Meridian Lossless Packing FBA
Commercial name : Dolby TrueHD
Codec ID : A_TRUEHD
Duration : 1 h 55 min
Bit rate mode : Variable
Bit rate : 2 248 kb/s
Maximum bit rate : 3 201 kb/s
Channel(s) : 8 channels
Channel layout : L R C LFE Ls Rs Lb Rb
Sampling rate : 48.0 kHz
Frame rate : 1 200.000 FPS (40 SPF)
Compression mode : Lossless
Stream size : 1.82 GiB (6%)
Title : 3.from.Hell.2019.UNRATED.1080p.BluRay.REMUX.AVC.DTS-HD.MA.TrueHD.7.1-FGT
Language : English
Default : Yes
Forced : No

Audio #2
ID : 3
Format : DTS XLL
Format/Info : Digital Theater Systems
Commercial name : DTS-HD Master Audio
Codec ID : A_DTS
Duration : 1 h 55 min
Bit rate mode : Variable
Bit rate : 4 258 kb/s
Channel(s) : 8 channels
Channel layout : C L R LFE Lb Rb Lss Rss
Sampling rate : 48.0 kHz
Frame rate : 93.750 FPS (512 SPF)
Bit depth : 24 bits
Compression mode : Lossless
Stream size : 3.44 GiB (11%)
Title : 3.from.Hell.2019.UNRATED.1080p.BluRay.REMUX.AVC.DTS-HD.MA.TrueHD.7.1-FGT
Language : English
Default : No
Forced : No

Audio #3
ID : 4
Format : AC-3
Format/Info : Audio Coding 3
Commercial name : Dolby Digital
Codec ID : A_AC3
Duration : 1 h 55 min
Bit rate mode : Constant
Bit rate : 640 kb/s
Channel(s) : 6 channels
Channel layout : L R C LFE Ls Rs
Sampling rate : 48.0 kHz
Frame rate : 31.250 FPS (1536 SPF)
Bit depth : 16 bits
Compression mode : Lossy
Stream size : 530 MiB (2%)
Title : 3.from.Hell.2019.UNRATED.1080p.BluRay.REMUX.AVC.DTS-HD.MA.TrueHD.7.1-FGT
Language : English
Service kind : Complete Main
Default : No
Forced : No

Audio #4
ID : 5
Format : AC-3
Format/Info : Audio Coding 3
Commercial name : Dolby Digital
Codec ID : A_AC3
Duration : 1 h 55 min
Bit rate mode : Constant
Bit rate : 192 kb/s
Channel(s) : 2 channels
Channel layout : L R
Sampling rate : 48.0 kHz
Frame rate : 31.250 FPS (1536 SPF)
Bit depth : 16 bits
Compression mode : Lossy
Stream size : 159 MiB (0%)
Title : 3.from.Hell.2019.UNRATED.1080p.BluRay.REMUX.AVC.DTS-HD.MA.TrueHD.7.1-FGT
Language : English
Service kind : Complete Main
Default : No
Forced : No

Text #1
ID : 6
Format : UTF-8
Codec ID : S_TEXT/UTF8
Codec ID/Info : UTF-8 Plain Text
Duration : 1 h 46 min
Bit rate : 52 b/s
Count of elements : 1364
Stream size : 40.6 KiB (0%)
Title : English-SRT
Language : English
Default : Yes
Forced : No

Text #2
ID : 7
Format : PGS
Muxing mode : zlib
Codec ID : S_HDMV/PGS
Codec ID/Info : Picture based subtitle format used on BDs/HD-DVDs
Duration : 1 h 52 min
Bit rate : 40.4 kb/s
Count of elements : 3233
Stream size : 32.5 MiB (0%)
Title : English-PGS
Language : English
Default : No
Forced : No

Text #3
ID : 8
Format : PGS
Muxing mode : zlib
Codec ID : S_HDMV/PGS
Codec ID/Info : Picture based subtitle format used on BDs/HD-DVDs
Duration : 1 h 46 min
Bit rate : 35.4 kb/s
Count of elements : 2789
Stream size : 27.0 MiB (0%)
Title : Spanish-PGS
Language : Spanish
Default : No
Forced : No

Menu
00:00:00.000 : en:Chapter 01
00:06:18.920 : en:Chapter 02
00:13:16.837 : en:Chapter 03
00:21:29.538 : en:Chapter 04
00:28:25.286 : en:Chapter 05
00:33:30.049 : en:Chapter 06
00:42:12.738 : en:Chapter 07
00:48:23.150 : en:Chapter 08
00:55:15.937 : en:Chapter 09
01:05:21.167 : en:Chapter 10
01:10:13.834 : en:Chapter 11
01:21:01.231 : en:Chapter 12
01:25:16.069 : en:Chapter 13
01:31:16.262 : en:Chapter 14
01:39:35.260 : en:Chapter 15
01:46:39.434 : en:Chapter 16





1 個附件 售價 大小 下載 時間

3.from.Hell.2019.UNRATED.1080p.BluRay.REMUX.AVC.DTS-HD.MA.TrueHD.7.1-FGT.torrent 0 金幣 82.46K 420 次 3天前

#1樓
發帖時間:2019-10-12 02:33:19   |   回復數:1
911degrees
隱世仙人♂
非常感謝,謝謝分享
15小時前 #2樓
游客組