conanlcg
超級版主

[2019] [歐美] [其他] [BD-Remux] 少年泰坦出擊大戰少年泰坦 Teen.Titans.Go.Vs.Teen.Titans.2019.1080p.BluRay.REMUX.AVC.DTS-HD.MA

-->

帖子完整標題:少年泰坦出擊大戰少年泰坦 Teen.Titans.Go.Vs.Teen.Titans.2019.1080p.BluRay.REMUX.AVC.DTS-HD.MA.5.1-FGT 8.72GB




◎譯  名 少年泰坦出擊大戰少年泰坦
◎片  名 Teen Titans Go! vs Teen Titans
◎年  代 2019
◎產  地 美國
◎類  別 動畫
◎語  言 英語
◎上映日期 2019-09-24(美國)
◎IMDb評分 7.6/10 from 39 users
◎IMDb鏈接 http://www.imdb.com/title/tt10548944
◎豆瓣評分 0/10 from 0 users
◎豆瓣鏈接 https://movie.douban.com/subject/30481833/
◎片  長 76分鐘
◎導  演 Jeff Mednikow
◎編  劇 杰瑞米·亞當斯 Jeremy Adams / 馬爾利·哈爾彭-格雷瑟 Marly Halpern-Graser
◎主  演 塔拉·斯特朗 Tara Strong
      格雷格·西佩斯 Greg Cipes
      卡里·佩頓 Khary Payton
      斯科特·門維爾 Scott Menville
      海登·瓦爾希 Hynden Walch
      格蕾·德麗斯勒 Grey DeLisle
      瑞斯·達比 Rhys Darby
      阿爾·楊科維克 'Weird Al' Yankovic
      肖恩·馬希爾 Sean Maher
      凱文·邁克爾·理查德森 Kevin Michael Richardson


◎標  簽 美國 | DC | 動畫 | TTGO | 2019 | 電影 | 漫畫改編 | 超級英雄

◎簡  介

  a brief teaser trailer—purporting to be from next week’s Blu-ray and DVD release of Go! To the Movies—leaked online, alleging that the two animated Titan teams will clash in a new animated project called, of course, Teen Titans Go! vs. Teen Titans
Video
ID : 1
Format : AVC
Format/Info : Advanced Video Codec
Format profile : [email protected]
Format settings : CABAC / 4 Ref Frames
Format settings, CABAC : Yes
Format settings, Reference frames : 4 frames
Codec ID : V_MPEG4/ISO/AVC
Duration : 1 h 16 min
Bit rate mode : Variable
Bit rate : 11.8 Mb/s
Maximum bit rate : 38.0 Mb/s
Width : 1 920 pixels
Height : 1 080 pixels
Display aspect ratio : 16:9
Frame rate mode : Constant
Frame rate : 23.976 (24000/1001) FPS
Color space : YUV
Chroma subsampling : 4:2:0
Bit depth : 8 bits
Scan type : Progressive
Bits/(Pixel*Frame) : 0.237
Stream size : 6.35 GiB (73%)
Title : Teen.Titans.Go.Vs.Teen.Titans.2019.1080p.BluRay.REMUX.AVC.DTS-HD.MA.5.1-FGT
Language : English
Default : No
Forced : No

Audio #1
ID : 2
Format : DTS XLL
Format/Info : Digital Theater Systems
Commercial name : DTS-HD Master Audio
Codec ID : A_DTS
Duration : 1 h 16 min
Bit rate mode : Variable
Bit rate : 2 446 kb/s
Channel(s) : 6 channels
Channel layout : C L R Ls Rs LFE
Sampling rate : 48.0 kHz
Frame rate : 93.750 FPS (512 SPF)
Bit depth : 24 bits
Compression mode : Lossless
Stream size : 1.32 GiB (15%)
Title : Teen.Titans.Go.Vs.Teen.Titans.2019.1080p.BluRay.REMUX.AVC.DTS-HD.MA.5.1-FGT
Language : English
Default : Yes
Forced : No

Audio #2
ID : 3
Format : AC-3
Format/Info : Audio Coding 3
Commercial name : Dolby Digital
Codec ID : A_AC3
Duration : 1 h 16 min
Bit rate mode : Constant
Bit rate : 640 kb/s
Channel(s) : 6 channels
Channel layout : L R C LFE Ls Rs
Sampling rate : 48.0 kHz
Frame rate : 31.250 FPS (1536 SPF)
Bit depth : 16 bits
Compression mode : Lossy
Stream size : 352 MiB (4%)
Title : Teen.Titans.Go.Vs.Teen.Titans.2019.1080p.BluRay.REMUX.AVC.DTS-HD.MA.5.1-FGT
Language : Spanish
Service kind : Complete Main
Default : No
Forced : No

Audio #3
ID : 4
Format : AC-3
Format/Info : Audio Coding 3
Commercial name : Dolby Digital
Codec ID : A_AC3
Duration : 1 h 16 min
Bit rate mode : Constant
Bit rate : 640 kb/s
Channel(s) : 6 channels
Channel layout : L R C LFE Ls Rs
Sampling rate : 48.0 kHz
Frame rate : 31.250 FPS (1536 SPF)
Bit depth : 16 bits
Compression mode : Lossy
Stream size : 352 MiB (4%)
Title : Teen.Titans.Go.Vs.Teen.Titans.2019.1080p.BluRay.REMUX.AVC.DTS-HD.MA.5.1-FGT
Language : French
Service kind : Complete Main
Default : No
Forced : No

Audio #4
ID : 5
Format : AC-3
Format/Info : Audio Coding 3
Commercial name : Dolby Digital
Codec ID : A_AC3
Duration : 1 h 16 min
Bit rate mode : Constant
Bit rate : 640 kb/s
Channel(s) : 6 channels
Channel layout : L R C LFE Ls Rs
Sampling rate : 48.0 kHz
Frame rate : 31.250 FPS (1536 SPF)
Bit depth : 16 bits
Compression mode : Lossy
Stream size : 352 MiB (4%)
Title : Teen.Titans.Go.Vs.Teen.Titans.2019.1080p.BluRay.REMUX.AVC.DTS-HD.MA.5.1-FGT
Language : German
Service kind : Complete Main
Default : No
Forced : No

Text #1
ID : 6
Format : UTF-8
Codec ID : S_TEXT/UTF8
Codec ID/Info : UTF-8 Plain Text
Duration : 1 h 15 min
Bit rate : 63 b/s
Count of elements : 1176
Stream size : 35.3 KiB (0%)
Title : English-SRT
Language : English
Default : Yes
Forced : No

Text #2
ID : 7
Format : PGS
Muxing mode : zlib
Codec ID : S_HDMV/PGS
Codec ID/Info : Picture based subtitle format used on BDs/HD-DVDs
Duration : 1 h 16 min
Bit rate : 44.0 kb/s
Count of elements : 2702
Stream size : 24.0 MiB (0%)
Title : English-PGS
Language : English
Default : No
Forced : No

Text #3
ID : 8
Format : PGS
Muxing mode : zlib
Codec ID : S_HDMV/PGS
Codec ID/Info : Picture based subtitle format used on BDs/HD-DVDs
Duration : 1 h 16 min
Bit rate : 36.3 kb/s
Count of elements : 2312
Stream size : 19.8 MiB (0%)
Title : French-PGS
Language : French
Default : No
Forced : No

Text #4
ID : 9
Format : PGS
Muxing mode : zlib
Codec ID : S_HDMV/PGS
Codec ID/Info : Picture based subtitle format used on BDs/HD-DVDs
Duration : 1 h 16 min
Bit rate : 39.4 kb/s
Count of elements : 2308
Stream size : 21.6 MiB (0%)
Title : Spanish-PGS
Language : Spanish
Default : No
Forced : No

Text #5
ID : 10
Format : PGS
Muxing mode : zlib
Codec ID : S_HDMV/PGS
Codec ID/Info : Picture based subtitle format used on BDs/HD-DVDs
Duration : 1 h 16 min
Bit rate : 49.5 kb/s
Count of elements : 2752
Stream size : 27.1 MiB (0%)
Title : German-PGS
Language : German
Default : No
Forced : No

Text #6
ID : 11
Format : PGS
Muxing mode : zlib
Codec ID : S_HDMV/PGS
Codec ID/Info : Picture based subtitle format used on BDs/HD-DVDs
Duration : 22 min 40 s
Bit rate : 502 b/s
Count of elements : 14
Stream size : 83.5 KiB (0%)
Title : Spanish-FORCED-PGS
Language : Spanish
Default : No
Forced : No

Text #7
ID : 12
Format : PGS
Muxing mode : zlib
Codec ID : S_HDMV/PGS
Codec ID/Info : Picture based subtitle format used on BDs/HD-DVDs
Duration : 1 h 13 min
Bit rate : 237 b/s
Count of elements : 24
Stream size : 127 KiB (0%)
Title : French-FORCED-PGS
Language : French
Default : No
Forced : No

Text #8
ID : 13
Format : PGS
Muxing mode : zlib
Codec ID : S_HDMV/PGS
Codec ID/Info : Picture based subtitle format used on BDs/HD-DVDs
Duration : 13 min 20 s
Bit rate : 264 b/s
Count of elements : 4
Stream size : 25.8 KiB (0%)
Title : German-FORCED-PGS
Language : German
Default : No
Forced : No

Menu
00:00:00.000 : en:Chapter 01
00:07:53.598 : en:Chapter 02
00:13:38.484 : en:Chapter 03
00:21:22.239 : en:Chapter 04
00:29:00.280 : en:Chapter 05
00:37:13.481 : en:Chapter 06
00:46:42.090 : en:Chapter 07
00:53:44.846 : en:Chapter 08
01:03:11.704 : en:Chapter 09
01:13:37.246 : en:Chapter 10





1 個附件 售價 大小 下載 時間

Teen.Titans.Go.Vs.Teen.Titans.2019.1080p.BluRay.REMUX.AVC.DTS-HD.MA.5.1-FGT.torrent 0 金幣 44.20K 280 次 3天前

#1樓
發帖時間:2019-10-12 02:31:11   |   回復數:1
911degrees
隱世仙人♂
非常感謝,謝謝分享
15小時前 #2樓
游客組