conanlcg
超級版主

[2019] [歐美] [喜劇] [BD-1080P] 昨日奇跡 Yesterday.2019.1080p.BluRay.x264.DTS-HD.MA.7.1-FGT 10.46GB

-->

帖子完整標題:昨日奇跡 Yesterday.2019.1080p.BluRay.x264.DTS-HD.MA.7.1-FGT 10.46GB




◎譯  名 昨日奇跡 / All You Need is Love / 你需要的只是愛 / 昨天 / 昨日 / 緣來自昨天(港) / 靠譜歌王(臺)
◎片  名 Yesterday
◎年  代 2019
◎產  地 英國
◎類  別 喜劇 / 音樂 / 奇幻
◎語  言 英語
◎上映日期 2019-05-05(翠貝卡電影節) / 2019-06-28(英國) / 2019-08-16(中國大陸)
◎IMDb評分 7.0/10 from 31211 users
◎IMDb鏈接 http://www.imdb.com/title/tt8079248
◎豆瓣評分 6.6/10 from 3863 users
◎豆瓣鏈接 https://movie.douban.com/subject/30165034/
◎片  長 116分鐘
◎導  演 丹尼·博伊爾 Danny Boyle
◎編  劇 杰克·巴斯 Jack Barth / 理查德·柯蒂斯 Richard Curtis
◎主  演 希米什·帕特爾 Himesh Patel
      莉莉·詹姆斯 Lily James
      艾德·希蘭 Ed Sheeran
      凱特·麥克金農 Kate McKinnon
      阿歷克斯·阿諾 Alexander Arnold
      喬爾·弗萊 Joel Fry
      詹姆斯·柯登 James Corden
      卡米利·陳 Camille Chen
      拉蒙尼·莫里斯 Lamorne Morris
      索菲婭·迪·馬蒂諾 Sophia Di Martino
      卡米拉·拉瑟福德 Camilla Rutherford
      艾利斯·查普爾 Ellise Chappell
      莎拉·蘭卡夏爾 Sarah Lancashire
      多米尼克·科爾曼 Dominic Coleman
      瑪麗安娜·斯皮瓦克 Maryana Spivak
      詹妮弗·阿爾莫 Jennifer Armour
      安娜·德·阿瑪斯 Ana de Armas
      哈廷·帕特爾 Hiten Patel
      阿圖爾·夏爾馬 Atul Sharma
      馬諾伊·阿南德 Manoj Anand
      哈里·米歇爾 Harry Michell
      珊妮·姚 Sunny Yeo
      喬希·特雷特 Josh Trett
      西蒙·P·愛德華茲 Simon P Edwards


◎標  簽 披頭士 | 音樂 | 英國 | 喜劇 | 2019 | 搖滾 | 奇幻 | 平行穿越

◎簡  介

  杰克(希米什·帕特爾 飾)是英國一個海濱小鎮上苦苦掙扎的創作型歌手,有著好友艾莉(莉莉·詹姆斯 飾)的一直支持。在一次神秘的全球大停電中發生了一起奇怪的公交車事故,杰克醒來后發現披頭士樂隊根本從未存在過。他正面臨著非常復雜的問題。
Video
ID : 1
Format : AVC
Format/Info : Advanced Video Codec
Format profile : [email protected]
Format settings : CABAC / 5 Ref Frames
Format settings, CABAC : Yes
Format settings, Reference frames : 5 frames
Codec ID : V_MPEG4/ISO/AVC
Duration : 1 h 56 min
Bit rate : 8 783 kb/s
Width : 1 920 pixels
Height : 808 pixels
Display aspect ratio : 2.40:1
Frame rate mode : Constant
Frame rate : 23.976 FPS
Color space : YUV
Chroma subsampling : 4:2:0
Bit depth : 8 bits
Scan type : Progressive
Bits/(Pixel*Frame) : 0.236
Stream size : 7.13 GiB (68%)
Title : Yesterday.2019.1080p.BluRay.x264.DTS-HD.MA.7.1-FGT
Writing library : x264 core 158 r2984 3759fcb
Encoding settings : cabac=1 / ref=5 / deblock=1:-3:-3 / analyse=0x3:0x113 / me=umh / subme=8 / psy=1 / psy_rd=1.00:0.00 / mixed_ref=1 / me_range=16 / chroma_me=1 / trellis=1 / 8x8dct=1 / cqm=0 / deadzone=21,11 / fast_pskip=1 / chroma_qp_offset=-2 / threads=25 / lookahead_threads=4 / sliced_threads=0 / nr=0 / decimate=1 / interlaced=0 / bluray_compat=0 / constrained_intra=0 / bframes=3 / b_pyramid=2 / b_adapt=1 / b_bias=0 / direct=3 / weightb=1 / open_gop=0 / weightp=2 / keyint=250 / keyint_min=23 / scenecut=40 / intra_refresh=0 / rc_lookahead=50 / rc=2pass / mbtree=1 / bitrate=8783 / ratetol=1.0 / qcomp=0.60 / qpmin=0 / qpmax=69 / qpstep=4 / cplxblur=20.0 / qblur=0.5 / ip_ratio=1.40 / aq=1:1.00
Language : English
Default : Yes
Forced : No

Audio
ID : 2
Format : DTS XLL
Format/Info : Digital Theater Systems
Commercial name : DTS-HD Master Audio
Codec ID : A_DTS
Duration : 1 h 56 min
Bit rate mode : Variable
Bit rate : 4 024 kb/s
Channel(s) : 8 channels
Channel layout : C L R LFE Lb Rb Lss Rss
Sampling rate : 48.0 kHz
Frame rate : 93.750 FPS (512 SPF)
Bit depth : 24 bits
Compression mode : Lossless
Stream size : 3.27 GiB (31%)
Title : Yesterday.2019.1080p.BluRay.x264.DTS-HD.MA.7.1-FGT
Language : English
Default : No
Forced : No

Text #1
ID : 3
Format : UTF-8
Codec ID : S_TEXT/UTF8
Codec ID/Info : UTF-8 Plain Text
Duration : 1 h 55 min
Bit rate : 79 b/s
Count of elements : 2244
Stream size : 67.1 KiB (0%)
Title : English-SRT
Language : English
Default : Yes
Forced : No

Text #2
ID : 4
Format : PGS
Muxing mode : zlib
Codec ID : S_HDMV/PGS
Codec ID/Info : Picture based subtitle format used on BDs/HD-DVDs
Duration : 1 h 54 min
Bit rate : 59.0 kb/s
Count of elements : 4250
Stream size : 48.5 MiB (0%)
Title : English-PGS
Language : English
Default : No
Forced : No

Text #3
ID : 5
Format : PGS
Muxing mode : zlib
Codec ID : S_HDMV/PGS
Codec ID/Info : Picture based subtitle format used on BDs/HD-DVDs
Duration : 1 h 54 min
Bit rate : 40.7 kb/s
Count of elements : 3065
Stream size : 33.4 MiB (0%)
Title : Spanish-PGS
Language : Spanish
Default : No
Forced : No

Text #4
ID : 6
Format : PGS
Muxing mode : zlib
Codec ID : S_HDMV/PGS
Codec ID/Info : Picture based subtitle format used on BDs/HD-DVDs
Duration : 1 h 54 min
Bit rate : 43.8 kb/s
Count of elements : 3060
Stream size : 36.0 MiB (0%)
Title : French-PGS
Language : French
Default : No
Forced : No

Menu
00:00:00.000 : en:Chapter 01
00:06:16.667 : en:Chapter 02
00:11:19.470 : en:Chapter 03
00:16:12.930 : en:Chapter 04
00:21:28.245 : en:Chapter 05
00:27:04.539 : en:Chapter 06
00:33:31.884 : en:Chapter 07
00:38:55.082 : en:Chapter 08
00:45:53.250 : en:Chapter 09
00:48:17.060 : en:Chapter 10
00:56:24.339 : en:Chapter 11
01:03:47.490 : en:Chapter 12
01:09:16.485 : en:Chapter 13
01:14:16.869 : en:Chapter 14
01:19:04.614 : en:Chapter 15
01:24:10.587 : en:Chapter 16
01:31:51.923 : en:Chapter 17
01:36:00.212 : en:Chapter 18
01:40:03.247 : en:Chapter 19
01:46:52.155 : en:Chapter 20





1 個附件 售價 大小 下載 時間

Yesterday.2019.1080p.BluRay.x264.DTS-HD.MA.7.1-FGT.torrent 0 金幣 52.85K 7070 次 2月前

#1樓
發帖時間:2019-09-14 21:20:51   |   回復數:4
liyouchai
隱世仙人♂
謝謝樓主分享資源
2月前 #2樓
911degrees
隱世仙人♂
非常感謝,謝謝分享
2月前 #3樓
tanchoohoon
武林盟主
感謝樓主的無私分享
1月前 #4樓
chechi008
武林盟主
感謝樓主分享...
1月前 #5樓
游客組